Super-filmi.3dn.ruСкачать фильмы бесплатно

Главная » 2011 » Июнь » 28 » Посланник The Messenger (Орен Моверман Oren Moverman) [2009 США драма мелодрама военный HDRip] AVO
23:15
Посланник The Messenger (Орен Моверман Oren Moverman) [2009 США драма мелодрама военный HDRip] AVO
Посланник / The Messenger
&%2310;Страна: США
Жанр: драма, мелодрама, военный
Год выпуска: 2009
Продолжительность: 01:52:54
Перевод: Авторский (одноголосый закадровый) Юрий Сербин
Cубтитры: нет
Режиссер: Орен Моверман / Oren Moverman
В ролях: Джена Мэлоун, Йайа ДаКоста, Портия, Лиза Джойс, Питер Френсис Джеймс, Имонн Уолкер, Саманта Мортон, Стив Бушеми, Вуди Харрельсон, Бен Фостер.
Описание: Обязанности сержанта армии Соединенных Штатов Уилла Монтгомери просты и печальны — он должен лично сообщать жёнам погибших солдат о том, что их мужья не вернутся с фронта живыми. Сложно представить этическую дилемму «посланника смерти», ведь у сержанта Монтгомери появились чувства к одной из солдатских вдов.
Качество видео: HDRip (исходник не известен)
Формат видео: AVI
Видео: Xvid 720x304 23.98fps 1852Kbps
Аудио1: Dolby AC3 48000Hz 6ch 448Kbps
Аудио2 (оригинал): Dolby AC3 48000Hz 6ch 448Kbps
Сэмпл: http://multi-up.com/478284

MediaInfo

Формат : AVI
Формат/Информация : Audio Video Interleave
Профиль формата : OpenDML
Размер файла : 2,18 Гбайт
Продолжительность : 1 ч. 52 м.
Общий поток : 2767 Кбит/сек
Название фильма : Poslannik.2009
Программа кодирования : VirtualDubMod 1.5.10.2 (build 2542/release)
Видео
Идентификатор : 0
Формат : MPEG-4 Visual
Профиль формата : Advanced Simple@L5
Параметр BVOP формата : 1
Параметр QPel формата : Нет
Параметр GMC формата : Без точки перехода
Параметр матрицы формата : Выборочная
Идентификатор кодека : XVID
Идентификатор кодека/Подсказка : XviD
Продолжительность : 1 ч. 52 м.
Битрейт : 1853 Кбит/сек
Ширина : 720 пикс.
Высота : 304 пикс.
Соотношение сторон : 2,35:1
Частота кадров : 23,976 кадр/сек
Цветовое пространство : YUV
Подвыборка цветности : 4:2:0
Битовая глубина : 8 бит
Тип развёртки : Прогрессивная
Метод сжатия : С потерями
Бит/(Пиксели*Кадры) : 0.353
Размер потока : 1,46 Гбайт (67%)
Библиотека кодирования : XviD 1.2.1 (UTC 2008-12-04)
Аудио %231
Идентификатор : 1
Формат : AC-3
Формат/Информация : Audio Coding 3
Расширение режима : CM (complete main)
Идентификатор кодека : 2000
Продолжительность : 1 ч. 52 м.
Вид битрейта : Постоянный
Битрейт : 448 Кбит/сек
Канал(ы) : 6 канала(ов)
Расположение каналов : Front: L C R, Side: L R, LFE
Частота : 48,0 КГц
Битовая глубина : 16 бит
Метод сжатия : С потерями
Размер потока : 362 Мбайт (16%)
Выравнивание : Разделение по промежуткам
Продолжительность промежутка : 42 мс. (1,00 видеокадр)
Время предзагрузки промежутка : 500 ms
Аудио %232
Идентификатор : 2
Формат : AC-3
Формат/Информация : Audio Coding 3
Расширение режима : CM (complete main)
Идентификатор кодека : 2000
Продолжительность : 1 ч. 52 м.
Вид битрейта : Постоянный
Битрейт : 448 Кбит/сек
Канал(ы) : 6 канала(ов)
Расположение каналов : Front: L C R, Side: L R, LFE
Частота : 48,0 КГц
Битовая глубина : 16 бит
Метод сжатия : С потерями
Размер потока : 362 Мбайт (16%)
Выравнивание : Разделение по промежуткам
Продолжительность промежутка : 42 мс. (1,00 видеокадр)
Время предзагрузки промежутка : 500 ms
Просмотров: 100 | Добавил: Alf | Рейтинг: 0.0/0
Всего комментариев: 0
Имя *:
Email *:
Код *: