Super-filmi.3dn.ruСкачать фильмы бесплатно

Главная » 2011 » Июнь » 28 » Парень с солнцем в глазах Парень с солнечными глазами The Boy With the Sun in His Eyes (Тодд Вероу To
23:17
Парень с солнцем в глазах Парень с солнечными глазами The Boy With the Sun in His Eyes (Тодд Вероу To
Парень с солнцем в глазах / Парень с солнечными глазами / The Boy With the Sun in His Eyes
&%2310;Страна: США
Жанр: триллер, драма, комедия, гей-тема
Год выпуска: 2009
Продолжительность: 01:31:06
Перевод: Любительский (одноголосый закадровый) || перевод: Нюрик Новы; озвучка: Василий Кошкин
Cубтитры: нет
Режиссер: Тодд Вероу / Todd Verow
В ролях: Тим Суэйн, Мэхогани Рейнольдс, Джош Убальди, Оливия Барт, Джо Бернардо, Джейсон Бушмен, Энзо Чераоло и др.
Описание: Ничто не могло подготовить Джона к тем переменам в жизни, которые последовали после смерти его друга детства Кевина. Когда у того обнаружили лимфому, то заодно и выяснилось, что у него был ВИЧ. Не в силах бороться с болезнью, Кевин покончил с собой. На похоронах Кевина Джон познакомился с одной его подругой, Соланж, продюсером на ТВ. Соланж предлагает Джону стать ее помощником и отправиться в Европу. Так он отправляется с ней в Берлин, Париж и Мадрид, где с головой окунается в европейскую гей-жизнь, встречаясь с красивыми парнями "на одну ночь".
Сэмпл: http://ifolder.ru/23320217
Качество видео: DVDRip
Формат видео: AVI
Видео: XviD, 592x320, 1.850, 25.000 fps, 1 499 Kbps
Аудио: MP3, 44.1 KHz, 192 Kbps, 2 channels

MediaInfo

General
Complete name : G:\На торрент\The Boy with the Sun in His Eyes rus.avi
Format : AVI
Format/Info : Audio Video Interleave
File size : 1.08 GiB
Duration : 1h 31mn
Overall bit rate : 1 701 Kbps
Video
ID : 0
Format : MPEG-4 Visual
Format profile : Advanced Simple@L5
Format settings, BVOP : No
Format settings, QPel : No
Format settings, GMC : No warppoints
Format settings, Matrix : Default (MPEG)
Codec ID : XVID
Codec ID/Hint : XviD
Duration : 1h 31mn
Bit rate : 1 499 Kbps
Width : 592 pixels
Height : 320 pixels
Display aspect ratio : 1.850
Frame rate : 25.000 fps
Resolution : 8 bits
Colorimetry : 4:2:0
Scan type : Progressive
Bits/(Pixel*Frame) : 0.317
Stream size : 977 MiB (88%)
Writing library : XviD 1.2.1 (UTC 2008-12-04)
Audio
ID : 1
Format : MPEG Audio
Format version : Version 1
Format profile : Layer 3
Codec ID : 55
Codec ID/Hint : MP3
Duration : 1h 31mn
Bit rate mode : Constant
Bit rate : 192 Kbps
Channel(s) : 2 channels
Sampling rate : 44.1 KHz
Stream size : 125 MiB (11%)
Alignment : Split accross interleaves
Interleave, duration : 40 ms (1.00 video frame)

Скриншот c названием фильма

&%2310;

Скриншоты

&%2310; &%2310; &%2310; &%2310;
Просмотров: 660 | Добавил: Alf | Рейтинг: 0.0/0
Всего комментариев: 0
Имя *:
Email *:
Код *: