Super-filmi.3dn.ruСкачать фильмы бесплатно

Главная » 2011 » Июнь » 28 » Флаги наших отцов Flags of Our Fathers (Клинт Иствуд Clint Eastwood) [2006 г боевик драма военный
23:14
Флаги наших отцов Flags of Our Fathers (Клинт Иствуд Clint Eastwood) [2006 г боевик драма военный
Флаги наших отцов / Flags of Our Fathers
&%2310;Год выпуска: 2006
Страна: США
Производство: Warner Bros. Pictures / DreamWorks SKG / Amblin Entertainment
Жанр: боевик, драма, военный, история
Продолжительность: 02:11:41
Перевод: Профессиональный (многоголосый, закадровый) Оригинальная дорожка
Субтитры: английские (отдельным файлом)-Режиссер: Клинт Иствуд
Сценарий: Уильям Бройлес мл., Пол Хаггис, Джеймс Брэдли
Продюсеры: Клинт Иствуд, Роберт Лоренц, Тим Мур
Оператор: Том Стерн
Композитор: Клинт Иствуд-В ролях: Райан Филипп, Адам Бич, Джесси Брэдфорд, Кен Ватанабе, Барри Пеппер, Пол Уокер, Джейми Белл, Роберт Патрик, Джо Майкл Берк, Бет Грант, Дэвид Патрик Келли, Джудит Айви, Пол Калдерон, Джейкоб Питтс, Руди Роуз, Джон Слэттери-Описание: История жизни шести американских пехотинцев, водрузивших флаг на вершине горы Сурибачи во время битвы при Иводзиме. Операция по овладению островом Иводзима стала переломным моментом в ходе Тихоокеанской кампании США против Японии весной 1945 года…-Бюджет: $90 000 000 | Премьера в мире: 20.10.2006 | Релиз на DVD: 19.06.2007, Universal Pictures Russia-&%2310; &%2310; &%2310;-Исходник | Sample | Сайт | Награды | HDRip 1,46 Gb-Качество: HDRip
Формат: AVI
Видео кодек: XviD
Аудио кодек: AC3
Видео: 720x304, 23.976 fps, 0.302 bit/pixel, 1587 Kbps
Аудио 1: Русский: 48 kHz, AC3 Dolby Digital, 3/2 (L,C,R,l,r) LFE ch, ~384.00 kbps avg
Аудио 2: English : 48 kHz, AC3 Dolby Digital, 3/2 (L,C,R,l,r) LFE ch, ~384.00 kbps avg
Субтитры: SRT

MediaInfo 0.7.17


General
Format: AVI
Format/Info: Audio Video Interleave
Format profile: OpenDML
File size: 2.18 GiB
Duration: 2h 11mn
Overall bit rate: 2 372 Kbps
Writing application: VirtualDubMod 1.5.10.2 (build 2540/release)
Writing library: VirtualDubMod build 2540/release

Video
ID: 0
Format: MPEG-4 Visual
Format profile: Streaming Video@L1
Format settings, BVOP: Yes
Format settings, QPel: No
Format settings, GMC: No warppoints
Format settings, Matrix: Default (MPEG)
Codec ID: XVID
Codec ID/Hint: XviD
Duration: 2h 11mn
Bit rate: 1 587 Kbps
Width: 720 pixels
Height: 304 pixels
Display aspect ratio: 2.35
Frame rate: 23.976 fps
Resolution: 24 bits
Colorimetry: 4:2:0
Scan type: Progressive
Bits/(Pixel*Frame): 0.302
Stream size: 1.46 GiB (67%)
Writing library: XviD 1.2.0.dev47 (UTC 2006-11-01)

Audio %231
ID: 1
Format: AC-3
Format/Info: Audio Coding 3
Codec ID: 2000
Duration: 2h 11mn
Bit rate mode: Constant
Bit rate: 384 Kbps
Channel(s): 6 channels
Channel positions: Front: L C R, Surround: L R, LFE
Sampling rate: 48.0 KHz
Stream size: 362 MiB (16%)
Alignment: Split accross interleaves
Interleave, duration: 42 ms (1.00 video frame)
Interleave, preload duration: 500 ms

Audio %232
ID: 2
Format: AC-3
Format/Info: Audio Coding 3
Codec ID: 2000
Duration: 2h 11mn
Bit rate mode: Constant
Bit rate: 384 Kbps
Channel(s): 6 channels
Channel positions: Front: L C R, Surround: L R, LFE
Sampling rate: 48.0 KHz
Stream size: 362 MiB (16%)
Alignment: Split accross interleaves
Interleave, duration: 42 ms (1.00 video frame)
Interleave, preload duration: 500 ms

История создания фильма


Первая часть дилогии Клинта Иствуда, посвященной ключевому эпизоду американской тихоокеанской кампании в годы Второй мировой войны - битве за остров Иводзима, создана на основе книги Джеймса Брэдли и Рона Пауэрса "Флаги наших отцов: Герои Иводзимы". В 2000 году права на экранизацию этого произведения купил Стивен Спилберг, но в итоге снимать фильм не стал, так как его не удовлетворил сценарий.
Через четыре года, сразу после триумфа "Девушки на миллион долларов" ("One Million Baby") на "оскаровской" церемонии, Клинт Иствуд обратился к Спилбергу с предложением все-таки реализовать этот проект. В качестве сценариста он предложил привлечь Пола Хаггиса, успешное сотрудничество с которым и обеспечило Иствуду очередной "Оскар". Спилберг согласился, и работа над фильмом началась.
Идея была и в самом деле беспрецедентная. Иствуд снял два разных фильма, объединенных одним событием, но излагающих противоположные точки зрения участников той знаменитой битвы. В первой части в центре повествования оказывается известный американский героический символ — фотокадр, запечатлевший солдат, которые водружают флаг на вершину горы Сурибачи.
Из шестерых героев в живых остаются только трое. Их роль проста. Они возвращаются на родину и сразу же становятся национальными героями со всеми вытекающими отсюда последствиями в виде участия во всевозможных торжественных мероприятиях, призванных укрепить патриотический дух нации.
Все события фильма пропускаются сквозь призму мировоззрения совершенно разных по характеру героев: один принимает все происходящее как неизбежность и мечтает лишь побыстрее попасть домой, другой во что бы то ни стало хочет быть настоящим героем, а третьего не отпускают призраки прошлого, чувство вины за погибших и за участие в повторяющихся и зачастую бессмысленных торжествах.
Несмотря на привычную для Иствуда очень качественную режиссуру и бережное обращение с характерами, фильм "Флаги наших отцов" заслужил куда меньше благосклонной критики, чем вторая часть - "Письма с Иводзимы" ("Letters from Iwo Jima"). Американская киноакадемия также посчитала, что фильм достоин лишь "технических" номинаций - "Лучший звук" и "Лучшая работа звукорежиссера".

Интересные факты


* Закадровый голос в рекламном ролике принадлежит Клинту Иствуду.
* Кроме режиссуры Клинт Иствуд выступил в непривычной для себя роли - композитора фильма.

Скриншоты

Скриншоты, 10 шт.

&%2310;
&%2310;
&%2310;
&%2310;
&%2310;
&%2310;
&%2310;
&%2310;
&%2310;
&%2310;

Скриншоты, 10 шт.

&%2310;
&%2310;
&%2310;
&%2310;
&%2310;
&%2310;
&%2310;
&%2310;
&%2310;
&%2310;
Не забываем говорить "Спасибо"
Просмотров: 121 | Добавил: Alf | Рейтинг: 0.0/0
Всего комментариев: 0
Имя *:
Email *:
Код *: